<?xml version="1.0" standalone="no"?>
<!DOCTYPE svg PUBLIC "-//W3C//DTD SVG 1.1//EN" "http://www.w3.org/Graphics/SVG/1.1/DTD/svg11.dtd" >
<svg xmlns="http://www.w3.org/2000/svg">
<metadata>Generated by IcoMoon</metadata>
<defs>
<font id="icomoon" horiz-adv-x="1024">
<font-face units-per-em="1024" ascent="960" descent="-64" />
<missing-glyph horiz-adv-x="1024" />
<glyph unicode="&#x20;" horiz-adv-x="512" d="" />
<glyph unicode="&#xe900;" glyph-name="icon_bookmark" d="M725.333 832h-426.667c-46.933 0-84.907-38.4-84.907-85.333l-0.427-682.667 298.667 128 298.667-128v682.667c0 46.933-38.4 85.333-85.333 85.333v0z" />
<glyph unicode="&#xe901;" glyph-name="icon_brash_small-copy-4" d="M298.667 448c-70.827 0-128-57.173-128-128 0-55.893-49.493-85.333-85.333-85.333 39.253-52.053 106.24-85.333 170.667-85.333 94.293 0 170.667 76.373 170.667 170.667 0 70.827-57.173 128-128 128v0zM883.627 847.787l-57.173 57.173c-16.64 16.64-43.52 16.64-60.16 0l-382.293-382.293 117.333-117.333 382.293 382.293c16.64 16.64 16.64 43.52 0 60.16v0zM0 106.667h1024v-170.667h-1024z" />
<glyph unicode="&#xe902;" glyph-name="icon_brash_small" d="M298.667 405.333c-70.827 0-128-57.173-128-128 0-55.893-49.493-85.333-85.333-85.333 39.253-52.053 106.24-85.333 170.667-85.333 94.293 0 170.667 76.373 170.667 170.667 0 70.827-57.173 128-128 128v0zM883.627 805.12l-57.173 57.173c-16.64 16.64-43.52 16.64-60.16 0l-382.293-382.293 117.333-117.333 382.293 382.293c16.64 16.64 16.64 43.52 0 60.16v0zM0-21.333h1024v-42.667h-1024z" />
<glyph unicode="&#xe903;" glyph-name="icon_close" d="M810.667 686.507l-60.16 60.16-238.507-238.507-238.507 238.507-60.16-60.16 238.507-238.507-238.507-238.507 60.16-60.16 238.507 238.507 238.507-238.507 60.16 60.16-238.507 238.507z" />
<glyph unicode="&#xe904;" glyph-name="icon_comment" d="M256 874.667c-46.933 0-85.333-38.4-85.333-85.333v-682.667c0-46.933 38.4-85.333 85.333-85.333h512c46.933 0 85.333 38.4 85.333 85.333v212.343l-340.513 0.991v386.379l340.513-2.379v85.333c0 46.933-38.4 85.333-85.333 85.333h-512zM597.333 618.667h341.333l-66.401-110.213 65.966-103.12h-340.898v213.333z" />
<glyph unicode="&#xe905;" glyph-name="icon_delete_forever" d="M256 149.333c0-46.933 38.4-85.333 85.333-85.333h341.333c46.933 0 85.333 38.4 85.333 85.333v512h-512v-512zM360.96 453.12l60.16 60.16 90.88-90.453 90.453 90.453 60.16-60.16-90.453-90.453 90.453-90.453-60.16-60.16-90.453 90.453-90.453-90.453-60.16 60.16 90.453 90.453-90.88 90.453zM661.333 789.333l-42.667 42.667h-213.333l-42.667-42.667h-149.333v-85.333h597.333v85.333h-149.333z" />
<glyph unicode="&#xe906;" glyph-name="icon_detlete-copy" d="M896 64h-153.6v153.6h153.6v-153.6zM896 371.2h-153.6v153.6h153.6v-153.6zM588.8 64h-153.6v153.6h153.6v-153.6zM588.8 371.2h-153.6v153.6h153.6v-153.6zM281.6 64h-153.6v153.6h153.6v-153.6zM896 678.4h-153.6v153.6h153.6v-153.6z" />
<glyph unicode="&#xe907;" glyph-name="icon_detlete" d="M256 149.333c0-46.933 38.4-85.333 85.333-85.333h341.333c46.933 0 85.333 38.4 85.333 85.333v512h-512v-512zM810.667 789.333h-149.333l-42.667 42.667h-213.333l-42.667-42.667h-149.333v-85.333h597.333v85.333z" />
<glyph unicode="&#xe908;" glyph-name="icon_drow_line" d="M234.667 61.758l469.333 812.909 73.901-42.667-469.333-812.909z" />
<glyph unicode="&#xe909;" glyph-name="icon_drowing_gesture" d="M195.84 666.027c29.867 30.293 59.733 57.6 72.96 52.053 21.333-8.533 0-43.947-12.8-64.853-10.667-17.92-122.027-165.973-122.027-269.227 0-54.613 20.48-99.84 57.173-127.147 32-23.893 74.24-31.147 112.64-19.627 45.653 13.227 83.2 59.733 130.56 118.187 51.627 63.573 120.747 146.773 174.080 146.773 69.547 0 70.4-43.093 75.093-76.373-161.28-27.307-229.547-156.587-229.547-229.12s61.44-131.84 136.96-131.84c69.547 0 183.040 56.747 200.107 260.267h104.96v106.667h-105.387c-6.4 70.4-46.507 179.2-171.947 179.2-96 0-178.347-81.493-210.773-121.173-24.747-31.147-87.893-105.813-97.707-116.053-10.667-12.8-29.013-35.84-47.36-35.84-19.2 0-30.72 35.413-15.36 81.92 14.933 46.507 59.733 122.027 78.933 150.187 33.28 48.64 55.467 81.92 55.467 139.947 0 92.587-69.973 122.027-107.093 122.027-56.32 0-105.387-42.667-116.053-53.333-15.36-15.36-28.16-28.16-37.547-39.68l74.667-72.96zM592.213 168.533c-13.227 0-31.573 11.093-31.573 30.72 0 25.6 31.147 93.867 122.453 117.76-12.8-114.773-61.013-148.48-90.88-148.48v0z" />
<glyph unicode="&#xe90a;" glyph-name="icon_eraser" d="M692.907 850.773l211.2-210.773c33.28-33.707 33.28-87.467 0-121.173l-392.107-392.107c-66.56-66.56-174.507-66.56-241.493 0l-150.613 150.613c-33.28 33.707-33.28 87.467 0 121.173l452.267 452.267c33.707 33.28 87.467 33.28 120.747 0v0zM180.053 337.92l151.040-150.613c33.28-33.707 87.040-33.707 120.747 0l150.613 150.613-211.2 211.2-211.2-211.2zM0 21.333h1024v-85.333h-1024z" />
<glyph unicode="&#xe90b;" glyph-name="icon_list" d="M128 405.333h85.333v85.333h-85.333v-85.333zM128 234.667h85.333v85.333h-85.333v-85.333zM128 576h85.333v85.333h-85.333v-85.333zM298.667 405.333h597.333v85.333h-597.333v-85.333zM298.667 234.667h597.333v85.333h-597.333v-85.333zM298.667 661.333v-85.333h597.333v85.333h-597.333z" />
<glyph unicode="&#xe90c;" glyph-name="icon_navigate_next" d="M426.667 704l-60.16-60.16 195.413-195.84-195.413-195.84 60.16-60.16 256 256z" />
<glyph unicode="&#xe90d;" glyph-name="icon_pen" d="M128 224v-160h160l471.893 471.893-160 160-471.893-471.893zM883.627 659.627c16.64 16.64 16.64 43.52 0 60.16l-99.84 99.84c-16.64 16.64-43.52 16.64-60.16 0l-78.080-78.080 160-160 78.080 78.080z" />
<glyph unicode="&#xe90e;" glyph-name="icon_pencil_big" d="M757.333 576l-160 160-426.667-426.667v-160h160l426.667 426.667zM883.627 702.293c16.64 16.64 16.64 43.52 0 60.16l-99.84 99.84c-16.64 16.64-43.52 16.64-60.16 0l-83.627-83.627 160-160 83.627 83.627zM0 106.667h1024v-170.667h-1024z" />
<glyph unicode="&#xe90f;" glyph-name="icon_pencil_small" d="M757.333 576l-160 160-426.667-426.667v-160h160l426.667 426.667zM883.627 702.293c16.64 16.64 16.64 43.52 0 60.16l-99.84 99.84c-16.64 16.64-43.52 16.64-60.16 0l-83.627-83.627 160-160 83.627 83.627zM0-21.333h1024v-42.667h-1024z" />
<glyph unicode="&#xe910;" glyph-name="icon_print" d="M810.667 618.667h-597.333c-70.827 0-128-57.173-128-128v-256h170.667v-170.667h512v170.667h170.667v256c0 70.827-57.173 128-128 128v0zM682.667 149.333h-341.333v213.333h341.333v-213.333zM810.667 448c-23.467 0-42.667 19.2-42.667 42.667s19.2 42.667 42.667 42.667c23.467 0 42.667-19.2 42.667-42.667s-19.2-42.667-42.667-42.667v0zM768 832h-512v-170.667h512v170.667z" />
<glyph unicode="&#xe911;" glyph-name="icon_search" d="M661.333 362.667h-33.707l-11.947 11.52c41.813 48.64 66.987 111.787 66.987 180.48 0 153.173-124.16 277.333-277.333 277.333s-277.333-124.16-277.333-277.333c0-153.173 124.16-277.333 277.333-277.333 68.693 0 131.84 25.173 180.48 66.987l11.52-11.947v-33.707l213.333-212.907 63.573 63.573-212.907 213.333zM405.333 362.667c-106.24 0-192 85.76-192 192s85.76 192 192 192c106.24 0 192-85.76 192-192s-85.76-192-192-192v0z" />
<glyph unicode="&#xe912;" glyph-name="icon_thumbnail" d="M128 832h341.333v-341.333h-341.333v341.333zM128 405.333h341.333v-341.333h-341.333v341.333zM554.667 832h341.333v-341.333h-341.333v341.333zM554.667 405.333h341.333v-341.333h-341.333v341.333z" />
</font>
</defs>
</svg>
