<?xml version="1.0" standalone="no"?>
<!DOCTYPE svg PUBLIC "-//W3C//DTD SVG 1.1//EN" "http://www.w3.org/Graphics/SVG/1.1/DTD/svg11.dtd" >
<svg xmlns="http://www.w3.org/2000/svg" xmlns:xlink="http://www.w3.org/1999/xlink" version="1.1">
<metadata></metadata>
<defs>
<font id="jsglyphregular" horiz-adv-x="2048" >
<font-face units-per-em="2048" ascent="1638" descent="-410" />
<missing-glyph horiz-adv-x="500" />
<glyph unicode="&#xd;" />
<glyph unicode="&#x25fc;" horiz-adv-x="500" d="M0 0v0v0v0v0z" />
<glyph unicode="&#xe001;" d="M1405 1739l-514 -811l-139 80l-107 -585l454 385l-139 80zM208 398q-20 0 -34 -14t-14 -34v-304q0 -20 14 -34t34 -14h1584q20 0 34 14t14 34v304q0 20 -14 34t-34 14h-1584z" />
<glyph unicode="&#xe002;" d="M208 1678q-20 0 -34 -14t-14 -34v-232v-72v-1193v-90v-5q1 -17 14.5 -28.5t30.5 -11.5h1590q17 0 30.5 11.5t14.5 28.5v5v90v1193v72v232q0 20 -14 34t-34 14h-1584zM340 1278h1320v-1100h-1320v1100z" />
<glyph unicode="&#xe003;" d="M994 1401q-35 -2 -64 -20l-708 -441q-27 -16 -45.5 -49t-18.5 -65q0 -55 38.5 -94t93.5 -39q40 0 73 22l637 397l637 -397q33 -22 73 -22q55 0 93.5 39t38.5 94q0 32 -18.5 65t-45.5 49l-708 441q-33 20 -70 20h-6z" />
<glyph unicode="&#xe004;" d="M994 693q-35 2 -64 20l-708 442q-27 16 -45.5 49t-18.5 65q0 55 38.5 93.5t93.5 38.5q42 0 73 -21l637 -398l637 398q31 21 73 21q55 0 93.5 -38.5t38.5 -93.5q0 -32 -18.5 -65t-45.5 -49l-708 -442q-33 -20 -70 -20h-6z" />
<glyph unicode="&#xe005;" d="M374 1563q-19 0 -32.5 -10.5t-13.5 -26.5v-150h115v56q0 16 13.5 27t32.5 11h1291q19 0 32.5 -11t13.5 -27v-1043q0 -16 -13.5 -26.5t-32.5 -10.5h-65v-94h183q17 0 29.5 9.5t13.5 22.5v3v70v926v56v181q0 16 -13.5 26.5t-32.5 10.5h-1521zM113 1349q-19 0 -32.5 -11 t-13.5 -27v-180v-56v-926v-70v-4q1 -13 13.5 -22t29.5 -9h1527q17 0 29.5 9t13.5 22v4v70v926v56v180q0 16 -13.5 27t-32.5 11h-1521zM240 1038h1267v-854h-1267v854z" />
<glyph unicode="&#xe006;" d="M1590 1637h-2q-35 0 -72 -22t-54 -53l-654 -1132l-270 468q-17 30 -54 51t-72 21q-60 0 -102.5 -42.5t-42.5 -102.5q0 -37 20 -72l395 -685q17 -30 54 -51.5t72 -21.5t72 21.5t54 51.5l779 1349q20 35 20 75q0 59 -42 101.5t-101 43.5z" />
<glyph unicode="&#xe007;" d="M291 1456q-18 -19 -30.5 -49.5t-12.5 -56.5q0 -27 13.5 -59t32.5 -51l491 -491l-491 -490q-19 -19 -32 -50.5t-13 -57.5q0 -63 45 -108t108 -45q26 0 57.5 13t50.5 32l491 490l490 -490q19 -19 50.5 -32t57.5 -13q63 0 108 45t45 108q0 26 -13 57.5t-32 50.5l-490 490 l490 491q19 19 32 50.5t13 57.5q0 63 -45 108t-108 45q-26 0 -57.5 -13t-50.5 -32l-490 -490l-491 490q-19 19 -50.5 32.5t-58.5 13.5t-59 -13.5t-51 -32.5z" />
<glyph unicode="&#xe008;" d="M1354 896q-2 35 -20 64l-441 708q-16 27 -49 45.5t-65 18.5q-55 0 -94 -38.5t-39 -93.5q0 -42 21 -73l398 -637l-398 -637q-21 -31 -21 -72q0 -55 39 -94t94 -39q32 0 65 19t49 46l441 707q20 33 20 70v6z" />
<glyph unicode="&#xe009;" d="M646 896q2 35 20 64l441 708q16 27 49 45.5t65 18.5q55 0 94 -38.5t39 -93.5q0 -42 -21 -73l-398 -637l398 -637q21 -32 21 -72q0 -55 -39 -94t-94 -39q-32 0 -65 19t-49 46l-441 707q-20 33 -20 70v6z" />
<glyph unicode="&#xe00a;" d="M998 1623q-53 -1 -90.5 -39t-37.5 -91v-2v-485h-485h-2q-54 0 -92 -38t-38 -92t38 -92t92 -38h2h485v-485v-2q0 -54 38 -92t92 -38t92 38t38 92v2v485h485h2q54 0 92 38t38 92t-38 92t-92 38h-2h-485v485v2q0 54 -38 92t-92 38h-2z" />
<glyph unicode="&#xe00b;" d="M385 1006h-2q-54 0 -92 -38t-38 -92t38 -92t92 -38h2h1230h2q54 0 92 38t38 92t-38 92t-92 38h-2h-1230z" />
<glyph unicode="&#xe00c;" d="M1000 1709q-77 0 -131.5 -19.5t-54.5 -46.5q0 -24 44 -42.5t109 -22.5l-224 -53l-258 -60h515h515l-258 60l-224 53q65 4 109 22.5t44 42.5q0 27 -54.5 46.5t-131.5 19.5zM485 1464v-62h1030v62h-1030zM493 1283l89 -1284h840l85 1284h-1014z" />
<glyph unicode="&#xe00d;" d="M992 210q-169 2 -312 86.5t-226 228.5t-83 314q0 128 50 244.5t134 200.5t200.5 134t244.5 50t244.5 -50t200.5 -134t134 -200.5t50 -244.5t-50 -244.5t-134 -200.5t-200.5 -134t-244.5 -50h-8zM900 334h200q8 0 14 6t6 14v640q0 8 -6 14t-14 6h-200q-8 0 -14 -6t-6 -14 v-640q0 -8 6 -14t14 -6zM902 1122h196q9 0 15.5 6.5t6.5 15.5v156q0 9 -6.5 15.5t-15.5 6.5h-196q-9 0 -15.5 -6.5t-6.5 -15.5v-156q0 -9 6.5 -15.5t15.5 -6.5zM280 1679q-50 0 -85 -35.5t-35 -84.5v-1440q0 -49 35 -84.5t85 -35.5h1440q50 0 85 35.5t35 84.5v1440 q0 49 -35 84.5t-85 35.5h-1440zM1000 1599q155 0 295.5 -60t242.5 -162t162 -242.5t60 -295.5t-60 -295.5t-162 -242.5t-242.5 -162t-295.5 -60t-295.5 60t-242.5 162t-162 242.5t-60 295.5t60 295.5t162 242.5t242.5 162t295.5 60z" />
<glyph unicode="&#xe00e;" d="M280 1679q-50 0 -85 -35.5t-35 -84.5v-1440q0 -49 35 -84.5t85 -35.5h1440q50 0 85 35.5t35 84.5v1440q0 49 -35 84.5t-85 35.5h-1440zM1000 1624v1v-1q17 0 34.5 -11t25.5 -26l707 -1412q7 -14 7 -31q0 -28 -20 -47.5t-48 -19.5h-1412q-28 0 -48 19.5t-20 47.5 q0 17 7 31l707 1412q8 15 25.5 26t34.5 11zM1000 1406l-597 -1194h1194zM933 1075h134q22 0 37.5 -15.5t15.5 -37.5v-426q0 -22 -15.5 -37.5t-37.5 -15.5h-134q-22 0 -37.5 15.5t-15.5 37.5v426q0 22 15.5 37.5t37.5 15.5zM920 459h160q16 0 28 -11.5t12 -28.5v-80 q0 -17 -12 -28.5t-28 -11.5h-160q-16 0 -28 11.5t-12 28.5v80q0 17 12 28.5t28 11.5z" />
<glyph unicode="&#xe00f;" d="M662 1305q-55 0 -93 -38l-184 -185q-38 -38 -38 -92t38 -92l246 -246l-246 -247q-38 -38 -38 -92t38 -92l184 -185q38 -38 92.5 -38t92.5 38l246 246l246 -246q38 -38 92.5 -38t92.5 38l184 185q38 38 38 92t-38 92l-246 247l246 246q38 38 38 92t-38 92l-184 185 q-38 38 -92.5 38t-92.5 -38l-246 -246l-246 246q-38 38 -92 38z" />
<glyph unicode="&#xe010;" d="M160 1038v-1040h1680v1040h-1680zM322 975h2q24 0 40 -13l636 -505l636 505q16 13 40 13q26 0 45 -19t19 -45v-786v-64h-128v64v654l-572 -454q-18 -14 -40 -14t-40 14l-572 454v-654v-64h-128v64v786q0 26 18.5 44.5t43.5 19.5z" />
<glyph unicode="&#xe011;" d="M227 1045l750 -643l750 643h-1500zM138 989v-894l501 465zM1816 989l-502 -429l502 -465v894zM715 494l-524 -487h1571l-524 487l-229 -196l-32 -28l-33 28zM138 12v-5h4zM1816 12l-4 -5h4v5z" />
<glyph unicode="&#xe012;" d="M357 875v741l7 -4q14 -7 641.5 -370t629.5 -365l-15 -9q-14 -10 -41 -26t-58 -34q-528 -305 -630 -364q-121 -70 -254 -147t-200.5 -116t-69.5 -40l-10 -6v740z" />
<glyph unicode="&#xe013;" d="M1000 871v740l4 -4q6 -8 280.5 -371t275.5 -364t-50 -69q-173 -228 -276 -364q-224 -294 -229 -302l-5 -7v741zM440 871v740l4 -4q6 -8 280.5 -371t275.5 -364t-50 -69q-173 -228 -276 -364q-224 -294 -229 -302l-5 -7v741z" />
<glyph unicode="&#xe014;" d="M1000 871v740l-4 -4q-6 -8 -280.5 -371t-275.5 -364t50 -69q173 -228 276 -364q224 -294 229 -302l5 -7v741zM1560 871v740l-4 -4q-6 -8 -280.5 -371t-275.5 -364t50 -69q173 -228 276 -364q224 -294 229 -302l5 -7v741z" />
<glyph unicode="&#xe015;" d="M620 1611v-741v-740l5 6q11 16 229 303q103 136 276 364q51 67 49 69q-1 1 -275.5 364t-280.5 371zM1180 1608v-1480h200v1480h-200z" />
<glyph unicode="&#xe016;" d="M1380 1611v-741v-740l-5 6q-11 16 -229 303q-103 136 -276 364q-51 67 -49 69q1 1 275.5 364t280.5 371zM820 1608v-1480h-200v1480h200z" />
<glyph unicode="&#xe017;" d="M337 1611v-741v-740l5 6q11 16 229 303q103 136 276 364q51 67 49 69q-1 1 -275.5 364t-280.5 371zM897 1611v-741v-740l5 6q11 16 229 303q103 136 276 364q51 67 49 69q-1 1 -275.5 364t-280.5 371zM1457 1608v-1480h206v1480h-206z" />
<glyph unicode="&#xe018;" d="M1663 1611v-741v-740l-5 6q-11 16 -229 303q-103 136 -276 364q-51 67 -49 69q1 1 275.5 364t280.5 371zM1103 1611v-741v-740l-5 6q-11 16 -229 303q-103 136 -276 364q-51 67 -49 69q1 1 275.5 364t280.5 371zM543 1608v-1480h-206v1480h206z" />
<glyph unicode="&#xe019;" d="M261 363h1480v200h-1480v-200zM259 676h740h740l-6 5q-1 1 -40.5 38.5t-115.5 109t-147 139.5q-136 129 -364 345q-67 64 -69 62q-2 -1 -365 -344t-370 -351z" />
<glyph unicode="&#xe01a;" d="M374 1502h1252v-1252h-1252v1252z" />
<glyph unicode="&#xe01b;" d="M680 1502v-1252h240v1252h-240zM1080 1502v-1252h240v1252h-240z" />
<glyph unicode="&#xe01c;" d="M1022 517v358v358l310 -179l310 -179l-310 -179zM358 1019h851v-288h-851v288z" />
<glyph unicode="&#xe01d;" d="M978 517v358v358l-310 -179l-310 -179l310 -179zM1642 1019h-851v-288h851v288z" />
<glyph unicode="&#xe01e;" d="M642 897h358h358l-179 310l-179 310l-179 -310zM1144 233v851h-288v-851h288z" />
<glyph unicode="&#xe01f;" d="M642 853h358h358l-179 -310l-179 -310l-179 310zM1144 1517v-851h-288v851h288z" />
<glyph unicode="&#xe020;" d="M1001 1531l-37 -125l-110 -382l-397 14l-131 5l108 -73l330 -223l-137 -374l-44 -123l103 80l313 245l314 -245l102 -80l-44 122l-136 374l331 222l108 73l-131 -4l-397 -14l-110 383zM1000 1260l82 -285l8 -28l29 1l297 10l-193 -130h-446l-193 130l297 -10l29 -1l8 28z " />
<glyph unicode="&#xe021;" d="M1416 251l-416 324l-415 -325l180 496l-438 294l528 -18l145 507l145 -506l528 18l-437 -295z" />
<glyph unicode="&#xe022;" d="M1001 1531l-37 -125l-110 -382l-397 14l-131 5l108 -73l330 -223l-137 -374l-44 -123l102 81l314 244l314 -245l102 -81l-44 123l-136 374l330 222l109 73l-131 -4l-397 -14l-110 383zM1000 1260l82 -285l8 -28l29 1l297 10l-247 -166l-24 -17l10 -27l101 -279l-234 183 l-22 18l-24 -18l-234 -182l102 278l10 28l-24 16l-246 166l297 -10l29 -1l8 28z" />
<glyph unicode="&#xe023;" d="M950 1373v-85v-190h-630h-50v-50v-320v-50h50h630v-190v-85l74 41l720 400l79 44l-79 44l-720 400zM1050 1203l567 -315l-567 -315v155v50h-50h-630v220h630h50v50v155z" />
<glyph unicode="&#xe024;" d="M1143 1373v-85v-190h630h50v-50v-320v-50h-50h-630v-190v-85l-74 41l-720 400l-79 44l79 44l720 400zM1043 1203l-567 -315l567 -315v155v50h50h630v220h-630h-50v50v155z" />
<glyph unicode="&#xe025;" d="M1485 792h-85h-190v-630v-50h-50h-320h-50v50v630h-190h-85l41 74l400 720l44 78l44 -78l400 -720zM1315 892l-315 567l-315 -567h155h50v-50v-630h220v630v50h50h155z" />
<glyph unicode="&#xe026;" d="M1485 984h-85h-190v630v50h-50h-320h-50v-50v-630h-190h-85l41 -74l400 -720l44 -78l44 78l400 720zM1315 884l-315 -567l-315 567h155h50v50v630h220v-630v-50h50h155z" />
<glyph unicode="&#xe027;" d="M280 1679q-50 0 -85 -35.5t-35 -84.5v-1440q0 -49 35 -84.5t85 -35.5h1440q50 0 85 35.5t35 84.5v1440q0 49 -35 84.5t-85 35.5h-1440zM1000 1599q155 0 295.5 -60t242.5 -162t162 -242.5t60 -295.5t-60 -295.5t-162 -242.5t-242.5 -162t-295.5 -60t-295.5 60t-242.5 162 t-162 242.5t-60 295.5t60 295.5t162 242.5t242.5 162t295.5 60zM1000 1468q-128 0 -244.5 -50t-200.5 -134t-134 -200.5t-50 -244.5t50 -244.5t134 -200.5t200.5 -134t244.5 -50t244.5 50t200.5 134t134 200.5t50 244.5t-50 244.5t-134 200.5t-200.5 134t-244.5 50z M1001 1359q148 0 238 -82q88 -81 88 -197q0 -67 -31 -123t-122 -138q-59 -52 -79 -80q-19 -27 -28 -59q-8 -31 -10 -109h-120q0 10 -0.5 22t-0.5 15q0 74 21 128q16 43 49 82q26 30 90 87t84 92q19 34 19 75q0 73 -56 128q-58 56 -140 56q-77 0 -132 -50q-53 -49 -70 -157 l-128 15q18 144 102 219q85 76 226 76zM929 462h142v-143h-142v143z" />
<glyph unicode="&#xe028;" d="M989 -1q-169 2 -322.5 69.5t-264.5 180t-176.5 267t-65.5 323.5q0 171 66.5 326.5t179 268t268 179t326.5 66.5t326.5 -66.5t268 -179t179 -268t66.5 -326.5t-66.5 -326.5t-179 -268t-268 -179t-326.5 -66.5h-11zM867 165h266q11 0 19 8t8 19v854q0 11 -8 19t-19 8h-266 q-11 0 -19 -8t-8 -19v-854q0 -11 8 -19t19 -8zM870 1217h260q12 0 21 9t9 21v207q0 12 -9 21t-21 9h-260q-12 0 -21 -9t-9 -21v-207q0 -12 9 -21t21 -9z" />
<glyph unicode="&#xe029;" d="M989 1679q-169 -2 -322.5 -69.5t-264.5 -180t-176.5 -267t-65.5 -323.5q0 -171 66.5 -326.5t179 -268t268 -179t326.5 -66.5t326.5 66.5t268 179t179 268t66.5 326.5t-66.5 326.5t-179 268t-268 179t-326.5 66.5h-11zM867 1513h266q11 0 19 -8t8 -19v-854q0 -11 -8 -19 t-19 -8h-266q-11 0 -19 8t-8 19v854q0 11 8 19t19 8zM870 461h260q12 0 21 -9t9 -21v-207q0 -12 -9 -21t-21 -9h-260q-12 0 -21 9t-9 21v207q0 12 9 21t21 9z" />
<glyph unicode="&#xe02a;" d="M989 1679q-169 -2 -322.5 -69.5t-264.5 -180t-176.5 -267t-65.5 -323.5q0 -171 66.5 -326.5t179 -268t268 -179t326.5 -66.5t326.5 66.5t268 179t179 268t66.5 326.5t-66.5 326.5t-179 268t-268 179t-326.5 66.5h-11zM1002 1509q193 0 308 -105q114 -104 114 -254 q0 -87 -40 -160q-38 -70 -158 -177q-79 -70 -103 -103t-36 -76q-11 -42 -13 -141h-156q-1 22 -1 49q0 95 27 164q19 52 64 106q34 40 116 112q81 70 109 119q25 43 25 96q0 94 -73 166q-72 71 -181 71q-102 0 -172 -65q-69 -65 -90 -202l-166 20q23 185 133 282 q112 98 293 98zM908 353h184v-184h-184v184z" />
<glyph unicode="&#xe02b;" d="M1000 -2q-168 0 -321 65.5t-263.5 176t-176 263.5t-65.5 321t65.5 321t176 264t263.5 176.5t321 65.5t321 -65.5t263.5 -176.5t176 -264t65.5 -321t-65.5 -321t-176 -263.5t-263.5 -176t-321 -65.5zM1000 133q141 0 269 54.5t221 147t147.5 220.5t54.5 269 q0 188 -92.5 347.5t-252 252t-347.5 92.5t-347.5 -92.5t-252 -252t-92.5 -347.5q0 -141 54.5 -269t147.5 -220.5t221 -147t269 -54.5zM900 308q-8 0 -14 6t-6 14v640q0 8 6 14t14 6h200q8 0 14 -6t6 -14v-640q0 -8 -6 -14t-14 -6h-200zM902 1140q-9 0 -15.5 7t-6.5 16v155 q0 9 6.5 15.5t15.5 6.5h196q9 0 15.5 -6.5t6.5 -15.5v-155q0 -9 -6.5 -16t-15.5 -7h-196z" />
<glyph unicode="&#xe02c;" d="M1000 1651q-168 0 -321 -65.5t-263.5 -176.5t-176 -264t-65.5 -321t65.5 -321t176 -263.5t263.5 -176t321 -65.5t321 65.5t263.5 176t176 263.5t65.5 321t-65.5 321t-176 264t-263.5 176.5t-321 65.5zM1000 1516q188 0 347.5 -92.5t252 -252t92.5 -347.5 q0 -141 -54.5 -269t-147.5 -220.5t-221 -147t-269 -54.5t-269 54.5t-221 147t-147.5 220.5t-54.5 269q0 188 92.5 347.5t252 252t347.5 92.5zM900 1340q-8 0 -14 -6t-6 -14v-640q0 -8 6 -14t14 -6h200q8 0 14 6t6 14v640q0 8 -6 14t-14 6h-200zM902 508q-9 0 -15.5 -6.5 t-6.5 -15.5v-155q0 -9 6.5 -16t15.5 -7h196q9 0 15.5 7t6.5 16v155q0 9 -6.5 15.5t-15.5 6.5h-196z" />
<glyph unicode="&#xe02d;" d="M1000 1651q-168 0 -321 -65.5t-263.5 -176.5t-176 -264t-65.5 -321t65.5 -321t176 -263.5t263.5 -176t321 -65.5t321 65.5t263.5 176t176 263.5t65.5 321t-65.5 321t-176 264t-263.5 176.5t-321 65.5zM1000 1516q188 0 347.5 -92.5t252 -252t92.5 -347.5 q0 -141 -54.5 -269t-147.5 -220.5t-221 -147t-269 -54.5t-269 54.5t-221 147t-147.5 220.5t-54.5 269q0 188 92.5 347.5t252 252t347.5 92.5zM1002 1402q-156 0 -253 -85q-95 -84 -115 -243l143 -17q18 119 78 174q61 56 149 56q94 0 156 -61q63 -62 63 -143q0 -44 -22 -83 q-20 -36 -94 -102q-72 -64 -100 -97q-39 -46 -55 -91q-23 -61 -23 -142q0 -22 1 -41h134q2 87 11 121q10 37 31 65q21 29 89 89q103 91 137 153t34 137q0 129 -99 219q-100 91 -265 91zM921 406v-159h159v159h-159z" />
<glyph unicode="&#xe02e;" d="M1640 1288v-200h200v200h-200zM1280 928v-200h200v200h-200zM1640 928v-200h200v200h-200zM920 568v-200h200v200h-200zM1280 568v-200h200v200h-200zM1640 568v-200h200v200h-200zM560 208v-200h200v200h-200zM920 208v-200h200v200h-200zM1280 208v-200h200v200h-200z M1640 208v-200h200v200h-200z" />
<glyph unicode="&#xe02f;" d="M560 208h200v-200h-200v200zM920 208h200v-200h-200v200zM1280 208h200v-200h-200v200zM1640 208h200v-200h-200v200zM1640 568h200v-200h-200v200zM1640 928h200v-200h-200v200zM1640 1288h200v-200h-200v200z" />
<glyph unicode="&#xe030;" d="M336 381l-69 -356l356 69zM372 412l283 -282l926 917l-283 283zM1383 1415l283 -283l147 147q14 14 14 34t-14 34l-215 215q-14 14 -34 14t-34 -14zM554 513l651 650l35 -35l-651 -651z" />
<glyph unicode="&#xe031;" d="M1008 1448q-232 0 -420 -127.5t-269 -332.5h246q70 112 187 178t256 66q137 0 253.5 -65t186.5 -175h-247l357 -400l358 400h-221q-82 203 -269 329.5t-418 126.5zM447 868l-358 -400h230q81 -205 269 -332.5t420 -127.5t420 127.5t269 332.5h-246q-70 -112 -187 -178 t-256 -66t-256 66t-187 178h240z" />
<glyph unicode="&#xe032;" d="M1496 1659l-447 -446h-487q-24 0 -41 -17t-17 -41v-654q0 -24 17 -41t41 -17h487l447 -446v1662z" />
<glyph unicode="&#xe033;" d="M878 1659l-324 -446h-352q-17 0 -29.5 -17t-12.5 -41v-654q0 -24 12.5 -41t29.5 -17h352l324 -446v1662zM1104 1659v-162q120 0 230 -53.5t189 -143t126 -213t47 -259.5t-47 -259.5t-126 -213t-189 -143t-230 -53.5v-162q200 0 369.5 111.5t268 302.5t98.5 417t-98.5 417 t-268 302.5t-369.5 111.5zM1104 1403v-163q151 -1 258 -121.5t107 -290.5t-107 -290.5t-258 -121.5v-163q138 0 255.5 77.5t185.5 209.5t68 288t-68 288t-185.5 209.5t-255.5 77.5zM1104 1159v-162q62 -1 105.5 -50t43.5 -119t-43.5 -119t-105.5 -50v-162q121 1 207 97.5 t86 233.5t-86 233.5t-207 97.5z" />
<glyph unicode="&#xe034;" d="M1292 1657l-446 -446h-487q-24 0 -41 -17t-17 -41v-654q0 -24 17 -41t41 -17h487l446 -447v1663zM1354 1176v-182q69 -2 116.5 -50.5t47.5 -117.5t-48 -118t-116 -51v-181q143 2 244 104t101 246t-101 246t-244 104z" />
<glyph unicode="&#xe035;" d="M210 560q-61 -61 -50 -156.5t87 -171.5l147 -146q76 -76 171.5 -87.5t156.5 49.5l378 378q61 61 50 157t-87 172l19 18q76 -76 171.5 -87t156.5 50l378 378q61 61 50 156.5t-87 171.5l-147 147q-76 76 -171.5 87t-156.5 -50l-378 -378q-61 -61 -50 -156.5t87 -171.5 l-19 -19q-76 76 -171.5 87t-156.5 -50zM322 490l337 336q34 33 84.5 33t97.5 -33l-61 -62q-31 -31 -31 -73t31 -73t73 -31t73 31l62 62q33 -47 33 -98t-33 -85l-337 -337q-39 -39 -100.5 -32t-110.5 56l-94 95q-49 49 -56 110.5t32 100.5zM1010 1177l337 337q39 39 100.5 32 t110.5 -56l94 -94q49 -49 56 -110.5t-32 -100.5l-337 -337q-34 -33 -84.5 -33t-97.5 33l62 62q31 31 31 73.5t-31 73.5t-73.5 31t-73.5 -31l-62 -62q-33 47 -33 97.5t33 84.5z" />
<glyph unicode="&#xe036;" d="M998 1299q-250 0 -470 -123t-371 -337q151 -214 371 -337t470 -123t470 123t371 337q-151 214 -371 337t-470 123zM771 1184q-113 -102 -113 -253q0 -141 99.5 -240.5t240.5 -99.5t240.5 99.5t99.5 240.5q0 151 -113 253q153 -39 284.5 -128.5t229.5 -216.5 q-133 -174 -326.5 -274t-414.5 -100t-414.5 100t-326.5 274q98 127 229.5 216.5t284.5 128.5zM760 1052q-25 -57 -19 -125t44 -127t96.5 -93.5t124.5 -39.5q-74 -21 -148 8t-118 97q-44 70 -38 147.5t58 132.5z" />
<glyph unicode="&#xe037;" d="M1290 1711q-17 0 -24 -13l-230 -400q-6 0 -18.5 0.5t-19.5 0.5q-250 0 -470 -123t-371 -337q167 -237 407 -357l-131 -228q-13 -24 9 -36l232 -134q10 -5 20.5 -2.5t15.5 12.5l169 292q55 -7 119 -7q250 0 470 123t371 337q-191 272 -475 388l179 311q13 24 -9 36 l-232 134q-6 3 -12 3zM771 1184q-113 -102 -113 -253q0 -102 57 -188l-109 -189q-206 98 -349 285q98 127 229.5 216.5t284.5 128.5zM1321 1153q252 -96 418 -314q-133 -174 -326.5 -274t-414.5 -100q-36 0 -72 3l71 123h1q141 0 240.5 99.5t99.5 240.5q0 92 -46 171z M760 1052q-45 -109 7 -219l-31 -54q-40 69 -33 144t57 129z" />
<glyph unicode="&#xe038;" d="M882 1764q-9 0 -15.5 -6.5t-6.5 -15.5v-836q0 -9 6.5 -15.5t15.5 -6.5h236q9 0 15.5 6.5t6.5 15.5v836q0 9 -6.5 15.5t-15.5 6.5h-236zM680 1582q-226 -95 -365.5 -301.5t-139.5 -459.5q0 -224 110.5 -414t300.5 -300.5t414 -110.5t414 110.5t300.5 300.5t110.5 414 q0 253 -139.5 459.5t-365.5 301.5v-251q141 -84 225 -228t84 -314q0 -128 -50 -244.5t-134 -200.5t-200.5 -134t-244.5 -50t-244.5 50t-200.5 134t-134 200.5t-50 244.5q0 170 84 314t225 228v251z" />
<glyph unicode="&#xe039;" d="M924 1675l-106 -192l-192 105l-29 -216l-216 28l51 -212l-213 -52l125 -180l-180 -125l181 -123l-122 -181l213 -49l-48 -213l216 31l32 -216l190 107l108 -190l139 169l169 -138l69 207l207 -67l-11 218l219 12l-90 199l200 90l-156 154l154 155l-201 88l87 200l-218 10 l8 218l-207 -70l-71 206l-167 -140zM1000 1316q130 0 240.5 -64.5t175 -175t64.5 -240.5t-64.5 -240.5t-175 -175t-240.5 -64.5t-240.5 64.5t-175 175t-64.5 240.5t64.5 240.5t175 175t240.5 64.5z" />
<glyph unicode="&#xe03a;" d="M1218 1624l-218 -208l-218 207l-85 -288l-293 70l71 -292l-289 -85l208 -218l-207 -218l288 -85l-70 -293l292 71l85 -288l218 207l218 -207l85 288l293 -70l-71 292l289 85l-208 218l207 218l-288 85l70 293l-292 -71zM1111 1152q142 -46 209.5 -178.5t21.5 -274.5 t-178.5 -209.5t-274.5 -21.5t-209.5 178.5t-21.5 274.5t178.5 209.5t274.5 21.5z" />
<glyph unicode="&#xe03b;" d="M1000 1637q-99 0 -183 -56t-133 -153t-49 -212q0 -133 64.5 -240t167.5 -153q-176 -23 -337 -80.5t-183 -113.5q-29 -134 -45.5 -248t-18.5 -181.5t0 -116t7 -67.5l4 -18h1412q2 6 5 19.5t6 65.5t0 117t-19 180t-45 249q-10 57 -173.5 114.5t-344.5 80.5 q103 47 166.5 153.5t63.5 238.5q0 115 -49 212t-133 153t-183 56z" />
<glyph unicode="&#xe03c;" d="M1003 1204q-112 0 -191 -90.5t-79 -219.5q0 -98 48 -177t124 -113q-130 -17 -248.5 -59t-135.5 -84q-22 -99 -33.5 -183t-13.5 -133.5t-0.5 -85t4.5 -49.5l4 -14h1041q2 5 4 14.5t4.5 48t0 86.5t-14 132.5t-33.5 183.5q-7 42 -128 85t-254 59q76 35 123 113.5t47 175.5 q0 129 -78.5 219.5t-190.5 90.5zM455 910q-76 0 -129.5 -62t-53.5 -149q0 -66 31.5 -119t83.5 -77q-91 -11 -172.5 -40t-86.5 -57q-23 -106 -29.5 -185t-1.5 -105l5 -26h322q-7 145 47 392q7 40 125 83q42 58 42 134q0 87 -53.5 149t-129.5 62zM1545 910q-76 0 -129.5 -62 t-53.5 -149q0 -76 42 -134q118 -43 125 -83q54 -247 47 -392h322q3 9 6 28t-3 100.5t-29 187.5q-5 28 -86.5 57t-172.5 40q52 24 83.5 77t31.5 119q0 87 -53.5 149t-129.5 62z" />
<glyph unicode="&#xe03d;" d="M1002 1613q-109 0 -201.5 -73t-146.5 -198.5t-54 -274.5q0 -128 43 -244h196q13 -8 31 -16q-173 -22 -331 -78.5t-180 -111.5q-29 -131 -45 -243t-18 -178.5t0.5 -113.5t7.5 -66l4 -18h1384q2 6 5 19t6.5 64t0.5 115t-18.5 177t-44.5 244q-7 37 -88.5 77.5t-195 70 t-225.5 43.5q26 13 29 15h200q42 114 42 244q0 149 -53.5 274.5t-146 198.5t-201.5 73z" />
<glyph unicode="&#xe03e;" d="M999 1208q-121 0 -206 -120.5t-85 -291.5q0 -102 30 -185h152q7 -4 14 -7q-125 -17 -238.5 -59t-129.5 -84q-33 -156 -42 -272.5t-2 -154.5l7 -38h998q1 5 3.5 14.5t4.5 48t0 86.5t-13 132.5t-32 183.5q-7 42 -123.5 85t-243.5 59q2 1 6.5 3t6.5 3h153q31 85 31 185 q0 171 -85 291.5t-206 120.5zM496 886q-78 0 -133 -78t-55 -189q0 -65 20 -120h63q17 -16 41 -27q-84 -11 -161.5 -40t-88.5 -57q-22 -106 -28.5 -185t-1.5 -104l5 -26h285q-7 165 50 436q20 55 193 109v14q0 111 -55.5 189t-133.5 78zM1504 886q-78 0 -133.5 -78 t-55.5 -189v-14q173 -54 193 -109q57 -271 50 -436h285q3 9 5.5 28t-3 100t-27.5 187q-11 28 -88.5 57t-161.5 40q24 11 41 27h63q20 55 20 120q0 111 -55 189t-133 78z" />
<glyph unicode="&#xe03f;" d="M849 1574q-146 0 -249 -118.5t-103 -286.5q0 -127 62 -230t162 -148q-170 -22 -324.5 -77t-176.5 -109q-28 -129 -43.5 -239t-17.5 -174.5t0 -111t7 -64.5l4 -18h1357q2 6 5 18.5t6 63t0.5 113t-18 173t-43.5 239.5q-10 55 -167.5 110t-331.5 77q99 45 160.5 147.5 t61.5 229.5q0 168 -102.5 286.5t-248.5 118.5zM1325 1447q-67 0 -129 -38q75 -107 75 -245q0 -105 -46 -194.5t-122 -140.5h94q5 -3 14 -7t11 -5q-49 -7 -110 -20q157 -25 286 -74t138 -97q58 -265 60 -442h268q2 5 4 15t4.5 50t0.5 90t-14.5 138.5t-34.5 190.5 q-8 43 -133.5 87.5t-263.5 61.5q8 4 22 12h156q33 90 33 191q0 177 -91.5 302t-221.5 125z" />
<glyph unicode="&#xe040;" d="M856 1610q-109 0 -201.5 -73t-146.5 -198.5t-54 -274.5q0 -128 43 -244h196q13 -8 31 -16q-173 -22 -331 -78.5t-180 -111.5q-29 -131 -45 -243t-18 -178.5t0.5 -113.5t7.5 -65l4 -19h1384q2 6 5 19t6.5 64t0.5 115t-18.5 177t-44.5 244q-7 37 -88.5 77.5t-195 70 t-225.5 43.5q26 13 29 15h200q42 114 42 244q0 149 -53.5 274.5t-146 198.5t-201.5 73zM1239 1561q-67 0 -126 -31q98 -62 157 -186.5t59 -276.5q0 -121 -39 -229q-6 -31 14.5 -47.5t55.5 -24t73 -17t72 -35.5t47 -70q63 -286 61 -463h220q2 5 4.5 16t5 55t0 99t-15.5 151.5 t-38 209.5q-9 48 -147.5 96.5t-289.5 67.5q87 40 140.5 129.5t53.5 200.5q0 147 -90 251t-217 104z" />
<glyph unicode="&#xe041;" d="M1000 1634q-99 0 -183 -56t-133 -153t-49 -212q0 -133 64.5 -240t167.5 -153q-176 -23 -337 -80.5t-183 -113.5q-29 -134 -45.5 -248t-18.5 -181.5t0 -116t7 -66.5l4 -19h1412q2 6 5 19.5t6 65.5t0 117t-19 180t-45 249q-10 57 -173.5 114.5t-344.5 80.5 q103 47 166.5 153.5t63.5 238.5q0 115 -49 212t-133 153t-183 56zM999 1535q116 0 198 -94.5t82 -228.5q0 -115 -62 -203t-157 -112v-168q142 -12 285.5 -59t152.5 -94q22 -102 34.5 -190t14 -139.5t0 -88.5t-4.5 -52l-4 -14h-1082q-2 5 -4 15t-4.5 50t-0.5 90t14.5 138.5 t34.5 190.5q19 47 161.5 94t282.5 59v167q-95 23 -158 112t-63 204q0 134 82 228.5t198 94.5z" />
<glyph unicode="&#xe042;" d="M1000 1677q-66 0 -137 -11l-53 -246l-187 167q-85 -42 -157 -101l78 -240l-247 52q-51 -79 -84 -166l187 -169l-240 -78q-1 -16 -1 -49q0 -66 11 -137l246 -53l-168 -188q40 -79 102 -156l239 77l-51 -246q82 -54 166 -85l168 187l79 -239q16 -1 49 -1q66 0 137 11 l53 246l187 -168q82 41 157 102l-78 239l247 -52q51 79 84 166l-187 169l240 79q1 16 1 49q0 66 -11 137l-246 53l168 187q-40 79 -102 156l-239 -77l51 246q-82 54 -166 85l-169 -187l-78 239q-32 2 -49 2zM1000 1196q149 0 254.5 -105.5t105.5 -254.5t-105.5 -254.5 t-254.5 -105.5t-254.5 105.5t-105.5 254.5t105.5 254.5t254.5 105.5z" />
<glyph unicode="&#xe043;" d="M458 1679q-57 -2 -105 -20l34 -22l6 -5l173 -112l-11 -213l-190 -97l-173 112l-6 4l-35 23q5 -73 41.5 -137.5t99.5 -105.5q66 -43 144 -49t146 23l225 -225q-10 -3 -21 -8l-4 2l3 -3q-1 0 -2.5 -1t-2.5 -2l240 -241q0 1 2 2.5t2 2.5l1 -1l-1 2q4 8 8 22l285 -285 q-25 -85 5.5 -169.5t106.5 -134.5q55 -36 121 -42.5t123 15.5l-30 20l-6 3l-151 98l10 186l166 85l151 -98l6 -4l30 -19q-4 63 -36 119t-87 92q-54 35 -117.5 42.5t-119.5 -12.5l-336 336l427 428l23 -24l203 240l-120 120l-240 -203l24 -23l-428 -428l-288 288 q32 85 12 175t-85 154q-19 19 -49 39q-81 53 -174 51zM758 824l-528 -527l243 -243l527 528zM211 275q-4 -4 -5 -7l-2 2l1 -4q-19 -34 -3 -85.5t60 -95.5t96 -60t86 3l2 -1l-1 2q3 1 7 5z" />
<glyph unicode="&#xe044;" d="M1000 1478l-957 -465h176v-1014h2v-2h1558v2h2v1014h176l-429 209v209h-156v-133zM454 778h364v-767h-364v767zM961 773h300v-201h-300v201zM1286 773h300v-201h-300v201zM961 547h300v-199h-300v199zM1286 547h300v-199h-300v199zM690 417v-22h91v22h-91z" />
<glyph unicode="&#xe045;" d="M444 1598v-416h250v130h900v-1028h-900v130h-250v-416h1400v1600h-1400zM718 1047v-149h-555v-200h555v-149l259 124l259 125l-259 125z" />
<glyph unicode="&#xe046;" d="M158 1594v-1600h1400v416h-250v-130h-900v1029h900v-131h250v416h-1400zM1320 1044v-150h-558v-200h558v-149l261 125l260 124l-260 125z" />
<glyph unicode="&#xe047;" d="M865 1368q-31 -323 17 -519q-152 0 -219 1q61 -107 95.5 -165.5t89.5 -146t92.5 -129.5t59.5 -42q18 0 51 37t79 107t83.5 132t90.5 151q22 38 33 56h-222q49 201 20 518h-270zM267 595q-44 0 -75.5 -31.5t-31.5 -75.5v-386q0 -44 31.5 -75.5t75.5 -31.5h1466 q44 0 75.5 31.5t31.5 75.5v386q0 44 -31.5 75.5t-75.5 31.5h-353q-2 -140 -113 -237.5t-267 -97.5t-267 97.5t-113 237.5h-353z" />
<glyph unicode="&#xe048;" d="M1000 1368q-22 0 -59.5 -42.5t-89 -124t-89.5 -146t-94 -162.5q-3 -6 -5 -9q67 1 219 1q-48 -196 -17 -518h270q29 317 -20 518q38 0 112 -0.5t110 -0.5q-166 280 -216 353q-88 130 -121 131zM267 595q-44 0 -75.5 -31.5t-31.5 -75.5v-386q0 -44 31.5 -75.5t75.5 -31.5 h1466q44 0 75.5 31.5t31.5 75.5v386q0 44 -31.5 75.5t-75.5 31.5h-353q-1 -140 -112 -239.5t-268 -99.5t-268 99.5t-112 239.5h-353z" />
<glyph unicode="&#xe049;" d="M1684 1679q-4 0 -9 -2t-11.5 -7.5t-12.5 -11t-15.5 -16.5t-17 -20t-21 -25t-23.5 -28.5t-27 -34.5t-30 -38q-229 181 -522 181q-171 0 -326.5 -66.5t-268.5 -179.5t-179.5 -268.5t-66.5 -326.5t66.5 -326.5t179.5 -268.5t268.5 -179.5t326.5 -66.5q156 0 300 55.5 t253.5 151.5t183.5 229t96 284h-245q-28 -136 -111.5 -245t-209 -171.5t-267.5 -62.5q-163 0 -301 80.5t-218.5 218.5t-80.5 301t80.5 301t218.5 218.5t301 80.5q207 0 367 -125q-24 -28 -65 -74q-109 -122 -103.5 -143.5t144.5 -25.5q105 -2 175 -7q71 -5 175 -15 q134 -14 150 5.5t-21 149.5q-28 99 -45 169q-13 53 -25 111t-18.5 89.5t-13.5 59.5t-14 38.5t-17 10.5z" />
<glyph unicode="&#xe04a;" d="M1000 1528q-142 0 -261.5 -69.5t-189 -189t-69.5 -261.5v-92h-160q-33 0 -56.5 -23.5t-23.5 -56.5v-760q0 -33 23.5 -56.5t56.5 -23.5h1360q33 0 56.5 23.5t23.5 56.5v760q0 33 -23.5 56.5t-56.5 23.5h-160v92q0 142 -69.5 261.5t-189 189t-261.5 69.5zM1000 1364 q149 0 254.5 -105.5t105.5 -254.5v-88h-720v88q0 149 105.5 254.5t254.5 105.5zM1000 757q66 0 113 -47t47 -113q0 -79 -62 -126v-140q0 -44 -28.5 -75.5t-69.5 -31.5t-69.5 31.5t-28.5 75.5v140q-62 47 -62 126q0 66 47 113t113 47z" />
<glyph unicode="&#xe04b;" d="M1000 1528q-142 0 -261.5 -69.5t-189 -189t-69.5 -261.5v-92h-160q-33 0 -56.5 -23.5t-23.5 -56.5v-760q0 -33 23.5 -56.5t56.5 -23.5h1360q33 0 56.5 23.5t23.5 56.5v760q0 33 -23.5 56.5t-56.5 23.5h-40h-120h-160h-120h-600v88q0 149 105.5 254.5t254.5 105.5 q98 0 181 -48t130 -130l141 81q-68 119 -188.5 190t-263.5 71zM1000 757q66 0 113 -47t47 -113q0 -79 -62 -126v-140q0 -44 -28.5 -75.5t-69.5 -31.5t-69.5 31.5t-28.5 75.5v140q-62 47 -62 126q0 66 47 113t113 47z" />
<glyph unicode="&#xe04c;" d="M355 1680v-1h-117q-18 0 -30.5 -12.5t-12.5 -30.5v-1596q0 -18 12.5 -30.5t30.5 -12.5h1524q18 0 30.5 12.5t12.5 30.5v1469l-170 170h-35v-559h-1125v560h-120zM1275 1640v-480h240v480h-240zM360 924h1280v-884h-1280v884z" />
<glyph unicode="&#xe04d;" d="M1641 1657l-34 -22l-6 -4l-171 -111l11 -211l189 -96l170 111l7 4l34 22q-5 -72 -41 -135t-99 -104q-61 -40 -132.5 -48t-135.5 15l-728 -728q21 -70 2.5 -144.5t-73.5 -129.5q-82 -82 -196.5 -82t-196.5 82q-57 57 -75 136t8 151q28 92 110 145q77 50 171 42 q31 -2 59 -10l728 728q-29 83 -9 170.5t84 149.5q24 22 49 39q78 52 172 50q52 -1 103 -20zM560 395l-169 45l-123 -123l45 -168l169 -45l123 123z" />
<glyph unicode="&#xe04e;" d="M1677 1513q-107 107 -251 145t-287.5 0t-250.5 -145q-134 -134 -158.5 -322t66.5 -346l-5 -5l-607 -608q-26 -26 -26 -61t26 -60l91 -91q25 -26 60 -26t61 26l607 607q1 1 2.5 3t2.5 3q106 -60 226.5 -70.5t237 31t205.5 130.5q107 107 145 250.5t0 287.5t-145 251z M1563 1400q116 -116 116 -281t-116 -281t-280.5 -116t-280.5 116t-116 281t116 281t280.5 116t280.5 -116z" />
<glyph unicode="&#xe04f;" d="M1282 1677q-109 0 -211.5 -42t-182.5 -122q-134 -134 -158.5 -322t66.5 -346l-5 -5l-607 -608q-26 -26 -26 -61t26 -60l91 -91q25 -26 60 -26t61 26l607 607q1 1 2.5 3t2.5 3q106 -60 226.5 -70.5t237 31t205.5 130.5q107 107 145 250.5t0 287.5t-145 251 q-80 80 -183 122t-212 42zM1282 1516q165 0 281 -116t116 -281t-116 -281t-280.5 -116t-280.5 116t-116 281t116 281t280 116zM1243 1401v-230h-228v-69h228v-254h83v254h229v69h-229v230h-83z" />
<glyph unicode="&#xe050;" d="M1282 1677q-109 0 -211.5 -42t-182.5 -122q-134 -134 -158.5 -322t66.5 -346l-5 -5l-607 -608q-26 -26 -26 -61t26 -60l91 -91q25 -26 60 -26t61 26l607 607q1 1 2.5 3t2.5 3q106 -60 226.5 -70.5t237 31t205.5 130.5q107 107 145 250.5t0 287.5t-145 251 q-80 80 -183 122t-212 42zM1282 1516q165 0 281 -116t116 -281t-116 -281t-280.5 -116t-280.5 116t-116 281t116 281t280 116zM1527 1192l-494 -3q-8 -8 -14 -22q-5 -12 -7 -29t4 -35q6 -19 22 -35l493 4q8 8 14 22q5 12 7 29q2 22 -4 39q-6 18 -21 30z" />
<glyph unicode="&#xe051;" d="M268 1335q-45 0 -76.5 -25t-31.5 -61v-211h1680v211q0 36 -32 61t-77 25h-1463zM160 770v-217h1680v217h-1680zM160 285v-203q0 -36 31.5 -61.5t76.5 -25.5h1463q45 0 77 25.5t32 61.5v203h-1680z" />
<glyph unicode="&#xe052;" d="M1000 1691q-122 0 -226 -60t-164 -164t-60 -226q0 -105 45 -197l406 -1047l424 1094h-1q26 72 26 150q0 122 -60 226t-164 164t-226 60zM1000 1518q116 0 198.5 -82.5t82.5 -198.5t-82.5 -198.5t-198.5 -82.5t-198.5 82.5t-82.5 198.5t82.5 198.5t198.5 82.5z" />
<glyph unicode="&#xe053;" d="M360 1288v-200h-200v200h200zM720 928v-200h-200v200h200zM360 928v-200h-200v200h200zM1080 568v-200h-200v200h200zM720 568v-200h-200v200h200zM360 568v-200h-200v200h200zM1440 208v-200h-200v200h200zM1080 208v-200h-200v200h200zM720 208v-200h-200v200h200z M360 208v-200h-200v200h200z" />
<glyph unicode="&#xe054;" d="M160 1288v-200h200v200h-200zM160 928v-200h200v200h-200zM160 568v-200h200v200h-200zM160 208v-200h200v200h-200zM520 208v-200h200v200h-200zM880 208v-200h200v200h-200zM1240 208v-200h200v200h-200z" />
<glyph unicode="&#xe055;" d="M1700 1793q-15 0 -25 -10l-111 -111l213 -212l111 111q10 11 10 25t-10 25l-162 162q-10 10 -26 10zM1500 1609l-698 -689l213 -212l698 688zM253 1581q-14 0 -24 -10.5t-10 -26.5v-1510q0 -16 10 -26.5t24 -10.5h1191q14 0 24 10.5t10 26.5v960l-153 -153v-623 q0 -12 -7.5 -20t-18.5 -8h-901q-11 0 -18.5 8t-7.5 20v1142q0 12 7.5 20.5t18.5 8.5h713l193 192h-1051zM1430 1483l26 -26l-490 -488l-27 26zM774 896l-51 -267l268 52z" />
</font>
</defs>
</svg>
